<?xml version="1.0" standalone="no"?>
<!DOCTYPE svg PUBLIC "-//W3C//DTD SVG 1.1//EN" "http://www.w3.org/Graphics/SVG/1.1/DTD/svg11.dtd">
<svg xmlns="http://www.w3.org/2000/svg">
<metadata>Generated by Fontastic.me</metadata>
<defs>
<font id="merchury" horiz-adv-x="512">
<font-face font-family="merchury" units-per-em="512" ascent="480" descent="-32"/>
<missing-glyph horiz-adv-x="512" />

<glyph glyph-name="004-unchecked" unicode="&#97;" d="M0 512l0-512 512 0 0 512z m480-480l-448 0 0 448 448 0z m-311 115l87 87 87-87 22 22-87 87 87 87-22 22-87-87-87 87-22-22 87-87-87-87z"/>
<glyph glyph-name="004-file" unicode="&#98;" d="M441 374l-134 135c-2 2-5 3-8 3l-189 0c-23 0-42-19-42-42l0-428c0-23 19-42 42-42l292 0c23 0 42 19 42 42l0 325c0 3-1 5-3 7z m-131 103l100-100-79 0c-12 0-21 10-21 22z m114-435c0-12-10-22-22-22l-292 0c-12 0-22 10-22 22l0 428c0 12 10 22 22 22l179 0 0-93c0-23 19-42 42-42l93 0z m-87 213l-162 0c-6 0-10-5-10-10 0-6 4-10 10-10l162 0c6 0 10 4 10 10 0 5-4 10-10 10z m0-45l-162 0c-6 0-10-5-10-10 0-6 4-10 10-10l162 0c6 0 10 4 10 10 0 5-4 10-10 10z m0-45l-162 0c-6 0-10-5-10-11 0-5 4-10 10-10l162 0c6 0 10 5 10 10 0 6-4 11-10 11z m-53-46l-109 0c-6 0-10-4-10-10 0-5 4-10 10-10l109 0c6 0 10 5 10 10 0 6-4 10-10 10z"/>
<glyph glyph-name="001-graph" unicode="&#99;" d="M392 280l32 0 0-76-32 0z m-44 38l32 0 0-114-32 0z m-44 39l32 0 0-153-32 0z m-44 38l32 0 0-191-32 0z m-78-58c0-18-14-32-32-32-18 0-32 14-32 32 0 18 14 32 32 32 18 0 32-14 32-32z m-64-39c0 0-33-1-33-31 0-30 0-36 0-36 0 0 63 0 63 0z m97-67c0 0 0 6 0 36 0 30-33 31-33 31l-30-67z m-65 67l-22 0 22-50 22 50z m338 168l-464 0c-13 0-24-10-24-24l0-285c0-13 11-24 24-24l192 0 0-55-73 0 0-32 226 0 0 32-73 0 0 55 192 0c13 0 24 11 24 24l0 285c0 14-11 24-24 24z m-8-301l-448 0 0 269 448 0z"/>
<glyph glyph-name="004-down-arrow" unicode="&#100;" d="M481 375c-6 6-16 6-23 0l-202-203-203 203c-6 6-16 6-23 0-6-7-6-17 0-23l214-214c3-3 7-5 12-5 4 0 8 2 11 5l214 214c7 6 7 16 0 23z"/>
<glyph glyph-name="004-arrows" unicode="&#101;" d="M499 287l-75 75c-8 8-15 11-23 11-13 0-27-10-27-31l0-31-63 0 0 64 31 0c21 0 31 13 31 26 0 8-4 16-11 23l-76 76c-16 16-44 16-60 0l-76-76c-7-7-11-15-11-23 0-13 10-26 31-26l31 0 0-64-63 0 0 31c0 21-14 31-26 31-9 0-16-3-24-11l-75-75c-17-17-17-44 0-61l75-76c8-7 15-11 24-11 12 0 26 10 26 32l0 30 63 0 0-63-31 0c-21 0-31-14-31-26 0-8 4-16 11-24l76-75c8-8 19-13 30-13 12 0 22 5 30 13l76 75c7 8 11 16 11 24 0 12-10 26-31 26l-31 0 0 63 63 0 0-30c0-22 14-32 27-32 8 0 15 4 23 11l75 76c17 17 17 44 0 61z m-15-46l-76-75c-3-3-5-5-7-5-3 0-5 5-5 10l0 52-107 0 0-107 53 0c4 0 9-1 9-4 0-2-2-5-4-8l-76-76c-8-7-22-7-30 0l-76 76c-2 3-4 6-4 8 0 3 5 4 9 4l0 0 53 0 0 107-107 0 0-53c0-4-1-9-4-9-2 0-5 2-8 5l-76 75c-8 9-8 22 0 30l76 76c3 3 6 4 8 4 3 0 4-5 4-9l0-53 107 0 0 108-53 0c-4 0-9 1-9 4 0 2 2 4 4 7l76 76c8 8 22 8 30 0l76-76c2-3 4-5 4-7 0-3-5-4-9-4l-53 0 0-108 107 0 0 53c0 4 1 9 5 9 2 0 4-1 7-4l76-76c8-8 8-21 0-30z"/>
<glyph glyph-name="001-down-chevron" unicode="&#102;" d="M489 367l-233-175-233 175-23-30 256-192 256 192z"/>
<glyph glyph-name="001-credit-card" unicode="&#103;" d="M476 444l-440 0c-20 0-36-16-36-36l0-304c0-20 16-36 36-36l440 0c20 0 36 16 36 36l0 304c0 20-16 36-36 36z m19-340c0-10-9-19-19-19l-440 0c-10 0-19 9-19 19l0 304c0 10 9 19 19 19l440 0c10 0 19-9 19-19z m-444 254l77 0c5 0 9 4 9 9 0 5-4 8-9 8l-77 0c-5 0-8-3-8-8 0-5 3-9 8-9z m188 17l-77 0c-5 0-8-3-8-8 0-5 3-9 8-9l77 0c5 0 8 4 8 9 0 5-3 8-8 8z m-188-59l9 0c4 0 8 4 8 8 0 5-4 9-8 9l-9 0c-5 0-8-4-8-9 0-4 3-8 8-8z m43 17c-5 0-9-4-9-9 0-4 4-8 9-8l17 0c5 0 8 4 8 8 0 5-3 9-8 9z m68-9c0 5-4 9-8 9l-9 0c-5 0-8-4-8-9 0-4 3-8 8-8l9 0c4 0 8 4 8 8z m43-8c5 0 8 4 8 8 0 5-3 9-8 9l-17 0c-5 0-9-4-9-9 0-4 4-8 9-8z m28 14c-2-1-3-4-3-6 0-2 1-4 3-6 1-1 4-2 6-2 2 0 4 1 6 2 2 2 2 4 2 6 0 2 0 5-2 6-3 3-9 3-12 0z m83-48l153 0 0 102-153 0z m17 85l119 0 0-68-119 0z m-290-239l94 0 0 68-94 0z m17 51l59 0 0-34-59 0z m94-51l93 0 0 68-93 0z m17 51l59 0 0-34-59 0z m94-51l93 0 0 68-93 0z m17 51l59 0 0-34-59 0z m93-51l94 0 0 68-94 0z m18 51l59 0 0-34-59 0z"/>
<glyph glyph-name="cancel-music" unicode="&#113;" d="M317 256l182 183c17 16 17 44 0 60-16 17-44 17-60 0l-183-182-183 182c-16 17-44 17-60 0-17-16-17-44 0-60l182-183-182-183c-17-16-17-44 0-60 16-17 44-17 60 0l183 182 183-182c16-17 44-17 60 0 17 16 17 44 0 60z"/>
<glyph glyph-name="close" unicode="&#114;" d="M301 256l202 201c12 13 12 33 0 46-13 12-33 12-46 0l-201-202-201 202c-13 12-33 12-46 0-12-13-12-33 0-46l202-201-202-201c-12-13-12-33 0-46 7-6 15-9 23-9 8 0 16 3 23 9l201 202 201-202c7-6 15-9 23-9 8 0 16 3 23 9 12 13 12 33 0 46z"/>
<glyph glyph-name="menu" unicode="&#115;" d="M491 277l-470 0c-12 0-21-10-21-21 0-11 9-21 21-21l470 0c12 0 21 10 21 21 0 11-9 21-21 21z m0 157l-470 0c-12 0-21-10-21-21 0-12 9-21 21-21l470 0c12 0 21 9 21 21 0 11-9 21-21 21z m0-314l-470 0c-12 0-21-9-21-21 0-11 9-21 21-21l470 0c12 0 21 10 21 21 0 12-9 21-21 21z"/>
<glyph glyph-name="menu-button-of-three-horizontal-lines" unicode="&#116;" d="M462 487l-412 0c-28 0-50-22-50-49 0-28 22-50 50-50l412 0c28 0 50 22 50 50 0 27-22 49-50 49z m0-181l-412 0c-28 0-50-23-50-50 0-27 22-50 50-50l412 0c28 0 50 23 50 50 0 27-22 50-50 50z m0-182l-412 0c-28 0-50-22-50-50 0-27 22-49 50-49l412 0c28 0 50 22 50 49 0 28-22 50-50 50z"/>
<glyph glyph-name="user" unicode="&#117;" d="M375 393c0-65-53-118-119-118-66 0-119 53-119 118 0 66 53 119 119 119 66 0 119-53 119-119z m-119-178c-119 0-215-96-215-215l430 0c0 119-96 215-215 215z"/>
<glyph glyph-name="arrow-down-sign-to-navigate" unicode="&#104;" d="M256 110c-9 0-18 4-25 11l-220 220c-15 14-15 36 0 50 13 14 36 14 50 0l195-194 195 194c14 14 36 14 50 0 14-14 14-36 0-50l-220-220c-7-7-16-11-25-11z"/>
<glyph glyph-name="arrow" unicode="&#105;" d="M131 239l216-215c9-9 25-9 34 0 10 10 10 25 0 34l-199 198 199 198c10 9 10 24 0 34-9 9-25 9-34 0l-216-215c-10-9-10-25 0-34z"/>
<glyph glyph-name="arow" unicode="&#106;" d="M256 52c-112 0-204 92-204 204 0 112 92 204 204 204 112 0 204-92 204-204 0-112-92-204-204-204z m7 280l0-40-113 0 0-75 113 0 0-40 102 77z"/>
<glyph glyph-name="youtube" unicode="&#107;" d="M490 398c-14 25-29 29-59 31-31 2-108 3-175 3-67 0-144-1-175-3-30-2-45-6-59-31-15-25-22-67-22-142 0 0 0 0 0 0 0 0 0 0 0 0l0 0c0-75 7-117 22-142 14-25 29-29 59-31 31-2 108-3 175-3 67 0 144 1 175 3 30 2 45 6 59 31 15 24 22 67 22 142 0 0 0 0 0 0 0 0 0 0 0 0 0 75-7 117-22 142z m-298-238l0 192 160-96z"/>
<glyph glyph-name="down-arrow" unicode="&#108;" d="M481 375c-6 6-16 6-23 0l-202-203-203 203c-6 6-16 6-23 0-6-7-6-17 0-23l214-214c3-3 7-5 12-5 4 0 8 2 11 5l214 214c7 6 7 16 0 23z"/>
<glyph glyph-name="facebook-letter-logo" unicode="&#109;" d="M188 413c0-13 0-71 0-71l-51 0 0-86 51 0 0-256 106 0 0 256 72 0c0 0 6 41 9 87-9 0-80 0-80 0 0 0 0 50 0 59 0 8 11 20 23 20 11 0 35 0 58 0 0 12 0 53 0 90-30 0-64 0-79 0-111 0-109-86-109-99z"/>
<glyph glyph-name="linkedin" unicode="&#110;" d="M119 347l-103 0c-4 0-8-3-8-8l0-330c0-5 4-8 8-8l103 0c5 0 8 3 8 8l0 330c0 5-3 8-8 8z m-51 164c-38 0-68-30-68-67 0-38 30-68 68-68 37 0 68 30 68 68 0 37-31 67-68 67z m313-156c-42 0-72-17-91-37l0 21c0 5-3 8-8 8l-98 0c-5 0-9-3-9-8l0-330c0-5 4-8 9-8l102 0c5 0 8 3 8 8l0 163c0 55 15 77 54 77 42 0 45-35 45-80l0-160c0-5 4-8 8-8l103 0c4 0 8 3 8 8l0 181c0 82-16 165-131 165z"/>
<glyph glyph-name="man-user" unicode="&#111;" d="M256 262c57 0 103 56 103 125 0 69-15 125-103 125-88 0-103-56-103-125 0-69 46-125 103-125z m-195-192c0 5 0 2 0 0z m390-3c0 1 0 8 0 0z m-1 8c-1 121-17 155-138 177 0 0-17-22-56-22-39 0-56 22-56 22-120-21-136-55-138-173-1-9-1-10-1-9 0-2 0-6 0-12 0 0 29-58 195-58 166 0 195 58 195 58 0 4 0 7 0 9 0-1 0 1-1 8z"/>
<glyph glyph-name="twitter" unicode="&#112;" d="M512 415c-19-9-39-14-60-17 21 13 38 34 46 58-21-12-43-20-67-25-19 20-47 33-77 33-58 0-104-47-104-105 0-8 0-16 2-24-87 4-164 46-216 110-9-16-15-34-15-53 0-37 19-69 47-87-17 0-34 5-48 13 0-1 0-1 0-2 0-51 37-93 85-103-9-2-18-3-28-3-7 0-13 0-20 2 14-42 52-73 98-74-35-28-81-44-130-44-8 0-17 0-25 1 46-30 102-47 161-47 193 0 299 160 299 299 0 4 0 9-1 13 21 15 39 34 53 55z"/>
<glyph glyph-name="icon" unicode="&#118;" d="M394 374c-11 0-20 9-20 20l0 39c0 11 9 20 20 20l39 0c11 0 20-9 20-20l0-39c0-11-9-20-20-20z m-138-43c-14 0-27-4-39-11 4 1 7 2 11 2 21 0 38-17 38-38 0-21-17-38-38-38-21 0-38 17-38 38 0 4 1 7 2 11-7-12-11-25-11-39 0-41 34-75 75-75 41 0 75 33 75 75 0 42-34 75-75 75z m0 43c65 0 118-53 118-118 0-65-53-118-118-118-65 0-118 53-118 118 0 65 53 118 118 118m0 40c-87 0-158-71-158-158 0-87 71-158 158-158 87 0 158 71 158 158 0 87-71 158-158 158z m160 98l-320 0c-53 0-96-43-96-96l0-320c0-53 43-96 96-96l320 0c53 0 96 43 96 96l0 320c0 53-43 96-96 96z m57-177l-129 0c19-21 30-49 30-79 0-65-53-118-118-118-65 0-118 53-118 118 0 30 11 58 30 79l-129 0 0 81c0 31 26 57 57 57l320 0c31 0 57-26 57-57z"/>
<glyph glyph-name="add" unicode="&#119;" d="M512 280l-232 0 0 232-48 0 0-232-232 0 0-48 232 0 0-232 48 0 0 232 232 0z"/>
<glyph glyph-name="shopping-cart" unicode="&#120;" d="M154 175l282 0c32 0 58 26 58 58l0 119c0 0 0 0 0 0 0 0 0 1 0 1 0 0 0 0 0 1 0 0 0 0 0 0 0 1 0 1 0 1-1 0-1 0-1 1 0 0 0 0 0 0 0 1 0 1 0 1 0 0 0 0 0 1 0 0-1 0-1 0 0 0 0 1 0 1 0 0 0 0 0 0 0 1-1 1-1 1 0 0 0 0 0 1 0 0 0 0-1 0 0 0 0 0 0 1 0 0 0 0 0 0-1 0-1 0-1 1 0 0 0 0 0 0-1 0-1 0-1 0 0 0 0 1-1 1 0 0 0 0 0 0 0 0-1 0-1 0 0 1 0 1-1 1 0 0 0 0 0 0 0 0-1 0-1 0 0 0 0 0-1 0 0 0 0 1 0 1 0 0-1 0-1 0 0 0 0 0 0 0l-358 49 0 50c0 1 0 1 0 1 0 1 0 1 0 1 0 0 0 1 0 1 0 0 0 0 0 1 0 0 0 0 0 0-1 1-1 1-1 1 0 0 0 0 0 1 0 0 0 0 0 0 0 1 0 1-1 1 0 0 0 0 0 0 0 1 0 1 0 1 0 0 0 0-1 1 0 0 0 0 0 0 0 0 0 0 0 0-1 1-1 1-1 1 0 0 0 0 0 0 0 1-1 1-1 1 0 0 0 0 0 0-1 1-1 1-1 1 0 0-1 0-1 0 0 1 0 1 0 1-1 0-1 0-2 0l-77 33c-7 3-16 0-19-8-3-7 1-15 8-18l69-29 0-312c0-29 22-54 50-57-5-9-8-19-8-30 0-31 26-57 57-57 32 0 58 26 58 57 0 11-3 21-8 29l128 0c-5-8-8-18-8-29 0-31 25-57 57-57 32 0 57 26 57 57 0 32-25 58-57 58l-268 0c-17 0-30 13-30 29l0 39c9-5 19-8 30-8z m70-118c0-16-13-28-29-28-15 0-28 13-28 28 0 16 13 29 28 29 16 0 29-13 29-29z m227 0c0-16-13-28-29-28-16 0-29 13-29 28 0 16 13 29 29 29 16 0 29-13 29-29z m-15 146l-282 0c-17 0-30 14-30 30l0 153 341-47 0-106c0-16-13-30-29-30z"/>
<glyph glyph-name="substract" unicode="&#121;" d="M0 280l512 0 0-48-512 0z"/>
</font>
</defs>
</svg>
